User:      Has│o:     



User Info
User:
Has│o:
Stwˇrz kontoOdzyskiwanie has│a


Kategorie

Seriale

Anime

Dla Dzieci

Muzyka

Gry

GSM/PDA

Ksiazki

Programy

Inne



Mile 22 (2018) [720p] [WEB-DL DD5 1] [H264] [CMRG] [ENG]


Kategoria: Filmy BluRay/HDTV 720p

Gatunek: Akcja / Sensacyjny

Doda│:  RIAS
Data dodania: 
09-11-2018
Rozmiar: 2.91 GB

Seedˇw: 61
Peerˇw: 42
Uko˝czone: 143

Pobrany: 10

Kondycja:

Pobierz



Produkcja: USA
Gatunek: Akcja
Premiera: 15 sierpnia 2018 (┬Âwiat)
Re┬┐yseria: Peter Berg
Scenariusz: Graham Roland, Lea Carpenter

NAPISY


Code
Bu┬│garski, Hiszpa├▒ski, Czeski, Rumu├▒ski,



James Silva (Mark Wahlberg) to funkcjonariusz elitarnej i bardzo cenionej jednostki CIA. Wspomagany przez ┬Âci┬Âle tajny zesp├│┬│ dowodzenia taktycznego, musi przej┬▒├Ž oraz przetransportowa├Ž Li Noora (Iko Uwais). M├¬┬┐czyzna ten jest wa┬┐nym ┬╝r├│d┬│em informacji, kt├│re zagra┬┐aj┬▒ jego ┬┐yciu. Czeka ich podr├│┬┐ przez 22 mile pe┬│ne niebezpiecze├▒stw.



Mark Wahlberg .... James Silva
Lauren Cohan .... Alice Kerr
Iko Uwais .... Li Noor
Ronda Rousey .... Sam Snow
John Malkovich .... Bishop
CL .... Kr├│lowa
Alexandra Vino .... Sier┬┐ant Thomas
Poorna Jagannathan .... Dorothy Brady





Cytuj:
Complete name : Mile.22.2018.720p.WEB-DL.DD5.1.H264-CMRG.mkv
Format : Matroska
Format version : Version 4 / Version 2
File size : 2.91 GiB
Duration : 1h 34mn
Overall bit rate : 4 408 Kbps
Movie name : CMRG
Encoded date : UTC 2018-11-08 17:44:08
Writing application : mkvmerge v27.0.0 ('Metropolis') 32-bit
Writing library : libebml v1.3.6 + libmatroska v1.4.9

Video
ID : 1
Format : AVC
Format/Info : Advanced Video Codec
Format profile : Main@L3.1
Format settings, CABAC : No
Format settings, ReFrames : 2 frames
Codec ID : V_MPEG4/ISO/AVC
Duration : 1h 34mn
Bit rate : 4 022 Kbps
Width : 1 280 pixels
Height : 532 pixels
Display aspect ratio : 2.40:1
Frame rate mode : Constant
Frame rate : 23.976 (23976/1000) fps
Color space : YUV
Chroma subsampling : 4:2:0
Bit depth : 8 bits
Scan type : Progressive
Bits/(Pixel*Frame) : 0.246
Stream size : 2.66 GiB (91%)
Language : English
Default : Yes
Forced : No
Color range : Limited
Color primaries : BT.709
Transfer characteristics : BT.709
Matrix coefficients : BT.709

Audio
ID : 2
Format : AC-3
Format/Info : Audio Coding 3
Mode extension : CM (complete main)
Format settings, Endianness : Big
Codec ID : A_AC3
Duration : 1h 34mn
Bit rate mode : Constant
Bit rate : 384 Kbps
Channel(s) : 6 channels
Channel positions : Front: L C R, Side: L R, LFE
Sampling rate : 48.0 KHz
Frame rate : 31.250 fps (1536 spf)
Compression mode : Lossy
Delay relative to video : -42ms
Stream size : 260 MiB (9%)
Language : English
Default : Yes
Forced : No

Text #1
ID : 3
Format : UTF-8
Codec ID : S_TEXT/UTF8
Codec ID/Info : UTF-8 Plain Text
Duration : 1h 25mn
Bit rate : 105 bps
Count of elements : 986
Stream size : 65.7 KiB (0%)
Language : Bulgarian
Default : Yes
Forced : No

Text #2
ID : 4
Format : UTF-8
Codec ID : S_TEXT/UTF8
Codec ID/Info : UTF-8 Plain Text
Duration : 1h 25mn
Bit rate : 78 bps
Count of elements : 1440
Stream size : 48.8 KiB (0%)
Language : Spanish
Default : No
Forced : No

Text #3
ID : 5
Format : UTF-8
Codec ID : S_TEXT/UTF8
Codec ID/Info : UTF-8 Plain Text
Duration : 1h 25mn
Bit rate : 62 bps
Count of elements : 1156
Stream size : 39.0 KiB (0%)
Language : Czech
Default : No
Forced : No

Text #4
ID : 6
Format : UTF-8
Codec ID : S_TEXT/UTF8
Codec ID/Info : UTF-8 Plain Text
Duration : 1h 25mn
Bit rate : 70 bps
Count of elements : 1281
Stream size : 44.3 KiB (0%)
Language : Romanian
Default : No
Forced : No
















Pliki
(2) files
Ocena N/A
Tracker
Podobne


Komentarze


Brak Komentarzy!!!